<?xml version="1.0" standalone="no"?>
<!DOCTYPE svg PUBLIC "-//W3C//DTD SVG 1.1//EN" "http://www.w3.org/Graphics/SVG/1.1/DTD/svg11.dtd" >
<svg xmlns="http://www.w3.org/2000/svg">
<metadata>
This is a custom SVG webfont generated by Font Squirrel.
Copyright   : copyright 1999 bluevinylaolcom
</metadata>
<defs>
<font id="MetalOnMetalRegular" horiz-adv-x="1904" >
<font-face units-per-em="2048" ascent="1638" descent="-410" />
<missing-glyph horiz-adv-x="899" />
<glyph unicode=" "  horiz-adv-x="899" />
<glyph unicode="&#x09;" horiz-adv-x="899" />
<glyph unicode="&#xa0;" horiz-adv-x="899" />
<glyph unicode="!" horiz-adv-x="514" d="M0 100q0 -41 30.5 -70.5t71.5 -29.5l287 2q41 0 70.5 32t29.5 72q0 41 -30.5 71t-71.5 30l-287 -4q-43 0 -71.5 -30t-28.5 -73zM131 381q0 -43 29.5 -71.5t72.5 -28.5q41 0 71 29.5t30 70.5v1155q0 43 -29 72.5t-72 29.5t-72.5 -29.5t-29.5 -72.5v-1155z" />
<glyph unicode="0" d="M0 819q0 -68 31 -121l334 -577q70 -121 208 -121h668q61 0 119.5 34t89.5 87l334 577q29 49 28 121q0 72 -28 121l-334 578q-31 53 -89 86.5t-120 33.5h-668q-139 0 -208 -120l-334 -578q-31 -53 -31 -121zM203 819q0 14 2 21l287 493l655 -1130h-574q-25 0 -34 18 l-334 578q-2 6 -2 20zM664 1436h577q23 0 33 -19l334 -577q4 -6 4 -21q0 -14 -4 -20l-285 -494z" />
<glyph unicode="1" horiz-adv-x="647" d="M0 819q0 -41 29.5 -70.5t70.5 -29.5q57 0 88 51l226 387l-4 -1057q0 -43 28.5 -71.5t71.5 -28.5q41 0 70.5 29.5t29.5 70.5l6 1436q0 43 -28.5 72.5t-71.5 29.5q-59 0 -88 -51l-414 -717q-14 -24 -14 -51z" />
<glyph unicode="2" horiz-adv-x="1517" d="M0 819q0 -41 29.5 -70.5t70.5 -29.5q59 0 88 49l375 649q10 18 33 19h573l-700 -1215q-25 -43 -25 -82q0 -61 44 -100t108 -39h750q41 0 70.5 29.5t29.5 70.5q0 43 -28.5 73t-71.5 30h-656l703 1214q23 39 22 82q0 61 -44 100t-107 39h-668q-61 0 -119.5 -33.5 t-89.5 -86.5l-373 -648q-14 -24 -14 -51z" />
<glyph unicode="3" horiz-adv-x="1492" d="M0 100q0 43 28.5 73t71.5 30h750q23 0 33 18l286 496h-774q-43 0 -72.5 28.5t-29.5 71.5t29.5 73t72.5 30h776l-288 497q-10 18 -33 19h-750q-43 0 -71.5 29.5t-28.5 72.5q0 41 29.5 70.5t70.5 29.5h750q61 0 119.5 -33.5t89.5 -86.5l334 -578q29 -49 28 -121 q0 -72 -28 -121l-334 -577q-31 -53 -89.5 -87t-119.5 -34h-750q-41 0 -70.5 29.5t-29.5 70.5z" />
<glyph unicode="4" horiz-adv-x="1918" d="M0 848q0 -63 45 -102t109 -39h1419l-320 -553q-14 -25 -14 -52q0 -43 29.5 -72.5t72.5 -29.5q59 0 89 51l368 637q31 53 31 121q0 70 -31 123l-379 655q-29 51 -90 51q-43 0 -71.5 -29.5t-28.5 -72.5q0 -31 12 -51l332 -574h-1325l332 574q14 25 14 51q0 43 -29.5 72.5 t-72.5 29.5q-61 0 -91 -51l-378 -655q-23 -39 -23 -84z" />
<glyph unicode="5" horiz-adv-x="1921" d="M0 819q0 -27 14 -51l373 -647q31 -53 89.5 -87t119.5 -34h668q139 0 209 121l333 577q23 39 23 82q0 61 -43 100.5t-107 39.5h-1067q2 242 4 516h711q43 0 71.5 29.5t28.5 72.5q0 41 -29.5 70.5t-70.5 29.5h-731q-74 0 -128 -53t-54 -127l-4 -557q0 -76 53 -129t129 -53 h993l-287 -498q-10 -18 -34 -18h-668q-23 0 -33 18l-375 649q-29 49 -88 50q-41 0 -70.5 -30t-29.5 -71z" />
<glyph unicode="6" horiz-adv-x="1896" d="M0 819q0 -68 31 -121l334 -577q70 -121 208 -121h668q61 0 119.5 34t89.5 87l334 577q23 39 22 82q0 61 -44 100.5t-107 39.5l-1405 -5l330 572q14 25 14 51q0 43 -29.5 71.5t-72.5 28.5q-59 0 -89 -51l-372 -647q-31 -53 -31 -121zM254 715l1307 2l-287 -496 q-10 -18 -33 -18h-668q-25 0 -34 18z" />
<glyph unicode="7" horiz-adv-x="1970" d="M0 819q0 -41 29.5 -70.5t70.5 -29.5q59 0 88 49l385 668h713l356 -617l-385 -667q-14 -25 -14 -52q0 -43 30 -71.5t73 -28.5q57 0 86 51l444 768l-473 819h-946l-443 -768q-14 -24 -14 -51z" />
<glyph unicode="8" d="M0 819q0 -68 31 -121l334 -577q70 -121 208 -121h668q61 0 119.5 34t89.5 87l334 577q29 49 28 121q0 72 -28 121l-334 578q-31 53 -89 86.5t-120 33.5h-668q-139 0 -208 -120l-334 -578q-31 -53 -31 -121zM252 719h1309l-287 -498q-10 -18 -33 -18h-668q-25 0 -34 18z M252 920l287 497q10 18 34 19h668q23 0 33 -19l287 -497h-1309z" />
<glyph unicode="9" horiz-adv-x="1896" d="M0 858q0 -61 44 -100t108 -39l1404 4l-329 -571q-14 -25 -15 -52q0 -43 30 -71.5t73 -28.5q57 0 86 51l375 647q31 53 30 121q0 68 -30 121l-334 578q-70 121 -209 120h-668q-61 0 -119.5 -33.5t-89.5 -86.5l-333 -578q-23 -39 -23 -82zM246 922l286 495q10 18 33 19h668 q25 0 35 -19l284 -493z" />
<glyph unicode="?" horiz-adv-x="1935" d="M0 813q0 -43 29.5 -72.5t72.5 -29.5q59 0 88 51l377 653q12 20 35 21h672q23 -2 33 -21l288 -500h-594q-76 0 -129 -54t-53 -130v-350q0 -43 30 -71.5t73 -28.5q41 0 70.5 29.5t29.5 70.5v330h670q63 0 107 40t44 101q0 43 -22 82l-336 584q-31 51 -91.5 85.5 t-119.5 34.5h-674q-59 0 -119.5 -34.5t-89.5 -85.5l-377 -654q-14 -24 -14 -51zM688 100q0 -43 30 -71.5t73 -28.5l286 2q41 0 71 32t30 72q0 41 -31 71t-72 30l-287 -4q-43 0 -71.5 -30t-28.5 -73z" />
<glyph unicode="A" d="M0 819q0 -68 31 -121l372 -647q29 -51 89 -51q43 0 72.5 28.5t29.5 71.5q0 27 -14 52l-330 569h1313l-330 -569q-12 -20 -12 -52q0 -41 29.5 -70.5t70.5 -29.5q59 0 88 51l375 647q29 49 28 121q0 72 -28 121l-334 578q-31 53 -89 86.5t-120 33.5h-668q-139 0 -208 -120 l-334 -578q-31 -53 -31 -121zM254 924l285 493q10 18 34 19h668q23 0 33 -19l285 -493h-1305z" />
<glyph unicode="B" horiz-adv-x="1740" d="M0 819q0 -68 31 -121l334 -577q70 -121 208 -121h668q61 0 119.5 34t89.5 87l180 313q29 49 29 109q0 82 -47 139l-127 156v8l110 147q43 57 43 135q0 61 -28 111l-160 279q-31 53 -89 86.5t-120 33.5h-668q-139 0 -208 -120l-334 -578q-31 -53 -31 -121zM203 819 q0 14 2 21l334 577q10 18 34 19h668q23 0 33 -19l162 -278v-11q0 -12 -113 -163q-39 -53 -39 -123q0 -76 43 -129l127 -158q2 -4 2 -12v-8l-182 -314q-10 -18 -33 -18h-668q-25 0 -34 18l-334 578q-2 6 -2 20z" />
<glyph unicode="C" horiz-adv-x="1492" d="M0 819q0 -68 31 -121l334 -577q70 -121 208 -121h748q43 0 71.5 28.5t28.5 71.5t-28.5 73t-71.5 30h-748q-25 0 -34 18l-334 578q-2 6 -2 20t2 21l334 577q10 18 34 19h748q43 0 71.5 29.5t28.5 72.5t-28.5 71.5t-71.5 28.5h-748q-139 0 -208 -120l-334 -578 q-31 -53 -31 -121z" />
<glyph unicode="D" horiz-adv-x="1492" d="M0 182q0 -76 53 -129t129 -53h668q61 0 119.5 34t89.5 87l334 577q29 49 28 121q0 72 -28 121l-334 578q-31 53 -89.5 86.5t-119.5 33.5h-668q-76 0 -129 -53t-53 -129v-1274zM203 203v1233h647q23 0 33 -19l334 -577q4 -6 4 -21q0 -14 -4 -20l-334 -578q-10 -18 -33 -18 h-647z" />
<glyph unicode="E" horiz-adv-x="1492" d="M0 819q0 -68 31 -121l334 -577q70 -121 208 -121h748q43 0 71.5 28.5t28.5 71.5t-28.5 73t-71.5 30h-748q-25 0 -34 18l-285 496h774q41 0 70.5 29.5t29.5 70.5q0 43 -28.5 73t-71.5 30h-776l287 497q10 18 34 19h748q43 0 71.5 29.5t28.5 72.5t-28.5 71.5t-71.5 28.5 h-748q-139 0 -208 -120l-334 -578q-31 -53 -31 -121z" />
<glyph unicode="F" horiz-adv-x="1492" d="M0 819q0 -68 31 -121l372 -647q29 -51 89 -51q43 0 72.5 28.5t29.5 71.5q0 27 -14 52l-326 565h774q41 0 70.5 29.5t29.5 70.5q0 43 -28.5 73t-71.5 30h-776l287 497q10 18 34 19h748q43 0 71.5 29.5t28.5 72.5t-28.5 71.5t-71.5 28.5h-748q-139 0 -208 -120l-334 -578 q-31 -53 -31 -121z" />
<glyph unicode="G" horiz-adv-x="1935" d="M0 819q0 -68 31 -121l334 -577q70 -121 208 -121h668q61 0 119.5 34t89.5 87l373 645q20 29 20 61q0 43 -29.5 72t-72.5 29h-830q-41 0 -70.5 -30t-29.5 -71t29.5 -70.5t70.5 -29.5h654l-291 -506q-10 -18 -33 -18h-668q-25 0 -34 18l-334 578q-2 6 -2 20t2 21l334 577 q10 18 34 19h748q43 0 71.5 29.5t28.5 72.5t-28.5 71.5t-71.5 28.5h-748q-139 0 -208 -120l-334 -578q-31 -53 -31 -121z" />
<glyph unicode="H" d="M0 819q0 -68 31 -121l372 -647q29 -51 89 -51q43 0 72.5 28.5t29.5 71.5q0 27 -14 52l-334 579h1323l-336 -579q-12 -20 -12 -52q0 -41 29.5 -70.5t70.5 -29.5q59 0 88 51l375 647q29 49 28 121q0 72 -28 121l-375 647q-29 51 -88 51q-41 0 -70.5 -29.5t-29.5 -70.5 q0 -31 12 -51l321 -555h-1294l320 555q14 25 14 51q0 43 -29.5 71.5t-72.5 28.5q-59 0 -89 -51l-372 -647q-31 -53 -31 -121z" />
<glyph unicode="I" horiz-adv-x="1083" d="M0 100q0 -41 29.5 -70.5t70.5 -29.5h830q43 0 72.5 28.5t29.5 71.5t-29.5 73t-72.5 30h-326v1233h326q43 0 72.5 29.5t29.5 72.5t-29.5 71.5t-72.5 28.5h-830q-41 0 -70.5 -29.5t-29.5 -70.5q0 -43 28.5 -72.5t71.5 -29.5h303v-1233h-303q-43 0 -71.5 -30t-28.5 -73z" />
<glyph unicode="J" horiz-adv-x="1929" d="M0 819q0 -27 14 -51l373 -647q31 -53 89.5 -87t119.5 -34h668q139 0 209 121l333 577q31 53 31 121t-31 121l-374 647q-29 51 -86 51q-43 0 -73 -28.5t-30 -71.5q0 -27 14 -51l375 -647q2 -6 2 -21q0 -14 -2 -20l-334 -578q-10 -18 -34 -18h-668q-23 0 -33 18l-375 649 q-29 49 -88 50q-41 0 -70.5 -30t-29.5 -71z" />
<glyph unicode="K" horiz-adv-x="985" d="M0 117q0 -41 29.5 -71t70.5 -30q43 0 72 29t29 72v1421q0 43 -29 71.5t-72 28.5q-41 0 -70.5 -29.5t-29.5 -70.5v-1421zM346 799q0 -70 29 -119l364 -629q29 -51 86 -51q43 0 73 28.5t30 71.5q0 27 -15 52l-362 628q-4 4 -4 19q0 14 4 20l373 647q14 25 14 50 q0 43 -28.5 72.5t-71.5 29.5q-59 0 -88 -51l-375 -647q-29 -49 -29 -121z" />
<glyph unicode="L" horiz-adv-x="1492" d="M0 819q0 -68 31 -121l334 -577q70 -121 208 -121h748q43 0 71.5 28.5t28.5 71.5t-28.5 73t-71.5 30h-748q-25 0 -34 18l-334 578q-2 6 -2 20t2 21l375 647q14 25 14 51q0 43 -29.5 71.5t-72.5 28.5q-59 0 -89 -51l-372 -647q-31 -53 -31 -121z" />
<glyph unicode="M" horiz-adv-x="1945" d="M0 838q0 -70 31 -123l372 -647q29 -51 91 -52q43 0 72.5 30t29.5 73q0 31 -12 51l-375 647q-2 6 -2 21q0 12 2 18l317 551l248 -229q57 -53 133 -54q72 0 127 47l289 242l319 -557q4 -6 5 -18q0 -23 -189 -346l-196 -336q-14 -25 -15 -54q0 -43 30 -72.5t73 -29.5 q61 0 90 51l383 664q31 53 30 123q0 70 -30 123l-342 589q-51 88 -148 88q-63 0 -112 -41l-314 -264l-274 256q-52 49 -116 49q-11 0 -23 -2q-78 -10 -121 -86l-342 -589q-31 -53 -31 -123z" />
<glyph unicode="N" d="M0 819q0 -68 31 -121l372 -647q29 -51 89 -51q43 0 72.5 28.5t29.5 71.5q0 27 -14 52l-375 647q-2 6 -2 20t2 21l287 495l702 -1214q47 -80 127 -80q82 0 129 80l334 577q29 49 28 121q0 72 -28 121l-375 647q-29 51 -88 51q-41 0 -70.5 -29.5t-29.5 -70.5q0 -31 12 -51 l375 -647q4 -6 4 -21q0 -14 -4 -20l-287 -496l-700 1215q-45 80 -129 79q-80 0 -127 -79l-334 -578q-31 -53 -31 -121z" />
<glyph unicode="O" d="M0 819q0 -68 31 -121l334 -577q70 -121 208 -121h668q61 0 119.5 34t89.5 87l334 577q29 49 28 121q0 72 -28 121l-334 578q-31 53 -89 86.5t-120 33.5h-668q-139 0 -208 -120l-334 -578q-31 -53 -31 -121zM203 819q0 14 2 21l334 577q10 18 34 19h668q23 0 33 -19 l334 -577q4 -6 4 -21q0 -14 -4 -20l-334 -578q-10 -18 -33 -18h-668q-25 0 -34 18l-334 578q-2 6 -2 20z" />
<glyph unicode="P" horiz-adv-x="1896" d="M0 819q0 -68 31 -121l372 -647q29 -51 89 -51q43 0 72.5 28.5t29.5 71.5q0 27 -14 52l-330 571l1405 -4q63 0 107 39t44 100q0 43 -22 82l-334 578q-31 53 -89 86.5t-120 33.5h-668q-139 0 -208 -120l-334 -578q-31 -53 -31 -121zM254 924l285 493q10 18 34 19h668 q23 0 33 -19l287 -495z" />
<glyph unicode="Q" horiz-adv-x="1986" d="M0 819l473 -819h946l473 819l-473 819h-946zM233 819l357 617h713l356 -617l-301 -522l-168 278q-29 49 -86 50q-43 0 -73 -29t-30 -72q0 -29 17 -51l162 -270h-590z" />
<glyph unicode="R" horiz-adv-x="1890" d="M0 819q0 -68 31 -121l372 -647q29 -51 89 -51q43 0 72.5 28.5t29.5 71.5q0 27 -14 52l-334 579q123 -2 340 -2h565l387 -670q29 -51 88 -51q43 0 71.5 29t28.5 72q0 31 -12 51l-330 569h265q63 0 107 39t44 100q0 43 -22 82l-328 568q-31 53 -89 86.5t-120 33.5h-668 q-139 0 -208 -120l-334 -578q-31 -53 -31 -121zM260 932l279 485q10 18 34 19h668q23 0 33 -19l280 -485h-1294z" />
<glyph unicode="S" horiz-adv-x="1888" d="M0 858q0 -61 44 -100t108 -39h1402l-286 -498q-10 -18 -35 -18h-748q-43 0 -72.5 -30t-29.5 -73t29.5 -71.5t72.5 -28.5h748q139 0 209 121l334 577q23 39 22 82q0 61 -44 100.5t-105 39.5h-1403l286 497q10 18 33 19h750q43 0 71.5 29.5t28.5 72.5q0 41 -29.5 70.5 t-70.5 29.5h-750q-61 0 -119.5 -33.5t-89.5 -86.5l-333 -578q-23 -39 -23 -82z" />
<glyph unicode="T" horiz-adv-x="1966" d="M0 813q0 -43 29.5 -71.5t72.5 -28.5q59 0 88 49l377 653q10 18 33 21h223v-1334q0 -43 29 -72.5t72 -29.5t72.5 29.5t29.5 72.5v1334h246q23 0 35 -21l376 -653q29 -49 89 -49q41 0 71.5 29.5t30.5 70.5q0 27 -14 51l-377 654q-31 53 -90.5 86.5t-120.5 33.5h-672 q-139 0 -209 -120l-377 -654q-14 -24 -14 -51z" />
<glyph unicode="U" d="M0 819q0 -68 31 -121l334 -577q70 -121 208 -121h668q61 0 119.5 34t89.5 87l334 577q29 49 28 121q0 72 -28 121l-375 647q-29 51 -88 51q-41 0 -70.5 -29.5t-29.5 -70.5q0 -31 12 -51l375 -647q4 -6 4 -21q0 -14 -4 -20l-334 -578q-10 -18 -33 -18h-668q-25 0 -34 18 l-334 578q-2 6 -2 20t2 21l375 647q14 25 14 51q0 43 -29.5 71.5t-72.5 28.5q-59 0 -89 -51l-372 -647q-31 -53 -31 -121z" />
<glyph unicode="V" horiz-adv-x="1974" d="M0 815l926 -815l954 813l-448 776q-29 49 -86 49q-41 0 -70 -28.5t-29 -69.5q0 -31 13 -51l366 -633l-698 -594l-676 594l366 633q14 25 15 51q0 41 -30 69.5t-71 28.5q-57 0 -86 -49z" />
<glyph unicode="W" horiz-adv-x="1945" d="M0 801q0 70 31 123l372 647q29 51 91 51q43 0 72.5 -29.5t29.5 -72.5q0 -31 -12 -52l-375 -647q-2 -6 -2 -20q0 -12 2 -21l317 -549l248 230q57 53 133 53q72 0 127 -47l289 -242l319 555q4 6 5 21q0 14 -5 20l-380 662q-14 25 -15 53q0 43 30 72.5t73 29.5q61 0 90 -51 l383 -663q31 -53 30 -123q0 -70 -30 -123l-342 -590q-51 -88 -148 -88q-63 0 -112 41l-314 264l-274 -256q-52 -49 -116 -49q-11 0 -23 2q-78 10 -121 86l-342 590q-31 53 -31 123z" />
<glyph unicode="X" horiz-adv-x="1396" d="M0 100q0 -41 29.5 -70.5t70.5 -29.5q59 0 88 51l371 643q31 53 31 121t-31 121l-371 645q-29 49 -88 49q-41 0 -70.5 -29.5t-29.5 -70.5q0 -27 14 -51l371 -643q4 -6 4 -21q0 -23 -182 -338l-193 -325q-14 -25 -14 -52zM739 823q0 -68 31 -121l373 -645q29 -49 86 -49 q43 0 72.5 29t29.5 72q0 27 -14 51l-373 643q-2 6 -2 20q0 25 182 338l193 326q14 25 14 51q0 43 -29.5 71.5t-72.5 28.5q-57 0 -86 -51l-373 -643q-31 -53 -31 -121z" />
<glyph unicode="Y" horiz-adv-x="1951" d="M0 1538q0 -27 14 -51l373 -647q31 -53 89.5 -87t119.5 -34h235v-619q0 -41 30 -70.5t71 -29.5q43 0 72.5 28.5t29.5 71.5v619h230q61 0 119.5 33.5t89.5 87.5l372 647q14 25 15 51q0 41 -30 70.5t-71 29.5q-59 0 -88 -51l-375 -647q-10 -18 -32 -18h-668q-23 0 -33 18 l-375 647q-29 51 -88 51q-41 0 -70.5 -29.5t-29.5 -70.5z" />
<glyph unicode="Z" horiz-adv-x="1888" d="M0 780q0 61 44 100.5t108 39.5h1402l-286 497q-10 18 -35 19h-748q-43 0 -72.5 29.5t-29.5 72.5t29.5 71.5t72.5 28.5h748q139 0 209 -120l334 -578q23 -39 22 -82q0 -61 -44 -100t-105 -39h-1403l286 -498q10 -18 33 -18h750q43 0 71.5 -30t28.5 -73q0 -41 -29.5 -70.5 t-70.5 -29.5h-750q-61 0 -119.5 34t-89.5 87l-333 577q-23 39 -23 82z" />
<glyph unicode="^" horiz-adv-x="151" d="M51 -387v2025h41v-2025h-41z" />
<glyph unicode="a" d="M0 819q0 -68 31 -121l372 -647q29 -51 89 -51q43 0 72.5 28.5t29.5 71.5q0 27 -14 52l-330 569h1313l-330 -569q-12 -20 -12 -52q0 -41 29.5 -70.5t70.5 -29.5q59 0 88 51l375 647q29 49 28 121q0 72 -28 121l-334 578q-31 53 -89 86.5t-120 33.5h-668q-139 0 -208 -120 l-334 -578q-31 -53 -31 -121zM254 924l285 493q10 18 34 19h668q23 0 33 -19l285 -493h-1305z" />
<glyph unicode="b" horiz-adv-x="1740" d="M0 819q0 -68 31 -121l334 -577q70 -121 208 -121h668q61 0 119.5 34t89.5 87l180 313q29 49 29 109q0 82 -47 139l-127 156v8l110 147q43 57 43 135q0 61 -28 111l-160 279q-31 53 -89 86.5t-120 33.5h-668q-139 0 -208 -120l-334 -578q-31 -53 -31 -121zM203 819 q0 14 2 21l334 577q10 18 34 19h668q23 0 33 -19l162 -278v-11q0 -12 -113 -163q-39 -53 -39 -123q0 -76 43 -129l127 -158q2 -4 2 -12v-8l-182 -314q-10 -18 -33 -18h-668q-25 0 -34 18l-334 578q-2 6 -2 20z" />
<glyph unicode="c" horiz-adv-x="1492" d="M0 819q0 -68 31 -121l334 -577q70 -121 208 -121h748q43 0 71.5 28.5t28.5 71.5t-28.5 73t-71.5 30h-748q-25 0 -34 18l-334 578q-2 6 -2 20t2 21l334 577q10 18 34 19h748q43 0 71.5 29.5t28.5 72.5t-28.5 71.5t-71.5 28.5h-748q-139 0 -208 -120l-334 -578 q-31 -53 -31 -121z" />
<glyph unicode="d" horiz-adv-x="1492" d="M0 182q0 -76 53 -129t129 -53h668q61 0 119.5 34t89.5 87l334 577q29 49 28 121q0 72 -28 121l-334 578q-31 53 -89.5 86.5t-119.5 33.5h-668q-76 0 -129 -53t-53 -129v-1274zM203 203v1233h647q23 0 33 -19l334 -577q4 -6 4 -21q0 -14 -4 -20l-334 -578q-10 -18 -33 -18 h-647z" />
<glyph unicode="e" horiz-adv-x="1492" d="M0 819q0 -68 31 -121l334 -577q70 -121 208 -121h748q43 0 71.5 28.5t28.5 71.5t-28.5 73t-71.5 30h-748q-25 0 -34 18l-285 496h774q41 0 70.5 29.5t29.5 70.5q0 43 -28.5 73t-71.5 30h-776l287 497q10 18 34 19h748q43 0 71.5 29.5t28.5 72.5t-28.5 71.5t-71.5 28.5 h-748q-139 0 -208 -120l-334 -578q-31 -53 -31 -121z" />
<glyph unicode="f" horiz-adv-x="1492" d="M0 819q0 -68 31 -121l372 -647q29 -51 89 -51q43 0 72.5 28.5t29.5 71.5q0 27 -14 52l-326 565h774q41 0 70.5 29.5t29.5 70.5q0 43 -28.5 73t-71.5 30h-776l287 497q10 18 34 19h748q43 0 71.5 29.5t28.5 72.5t-28.5 71.5t-71.5 28.5h-748q-139 0 -208 -120l-334 -578 q-31 -53 -31 -121z" />
<glyph unicode="g" horiz-adv-x="1935" d="M0 819q0 -68 31 -121l334 -577q70 -121 208 -121h668q61 0 119.5 34t89.5 87l373 645q20 29 20 61q0 43 -29.5 72t-72.5 29h-830q-41 0 -70.5 -30t-29.5 -71t29.5 -70.5t70.5 -29.5h654l-291 -506q-10 -18 -33 -18h-668q-25 0 -34 18l-334 578q-2 6 -2 20t2 21l334 577 q10 18 34 19h748q43 0 71.5 29.5t28.5 72.5t-28.5 71.5t-71.5 28.5h-748q-139 0 -208 -120l-334 -578q-31 -53 -31 -121z" />
<glyph unicode="h" d="M0 819q0 -68 31 -121l372 -647q29 -51 89 -51q43 0 72.5 28.5t29.5 71.5q0 27 -14 52l-334 579h1323l-336 -579q-12 -20 -12 -52q0 -41 29.5 -70.5t70.5 -29.5q59 0 88 51l375 647q29 49 28 121q0 72 -28 121l-375 647q-29 51 -88 51q-41 0 -70.5 -29.5t-29.5 -70.5 q0 -31 12 -51l321 -555h-1294l320 555q14 25 14 51q0 43 -29.5 71.5t-72.5 28.5q-59 0 -89 -51l-372 -647q-31 -53 -31 -121z" />
<glyph unicode="i" horiz-adv-x="1083" d="M0 100q0 -41 29.5 -70.5t70.5 -29.5h830q43 0 72.5 28.5t29.5 71.5t-29.5 73t-72.5 30h-326v1233h326q43 0 72.5 29.5t29.5 72.5t-29.5 71.5t-72.5 28.5h-830q-41 0 -70.5 -29.5t-29.5 -70.5q0 -43 28.5 -72.5t71.5 -29.5h303v-1233h-303q-43 0 -71.5 -30t-28.5 -73z" />
<glyph unicode="j" horiz-adv-x="1929" d="M0 819q0 -27 14 -51l373 -647q31 -53 89.5 -87t119.5 -34h668q139 0 209 121l333 577q31 53 31 121t-31 121l-374 647q-29 51 -86 51q-43 0 -73 -28.5t-30 -71.5q0 -27 14 -51l375 -647q2 -6 2 -21q0 -14 -2 -20l-334 -578q-10 -18 -34 -18h-668q-23 0 -33 18l-375 649 q-29 49 -88 50q-41 0 -70.5 -30t-29.5 -71z" />
<glyph unicode="k" horiz-adv-x="985" d="M0 117q0 -41 29.5 -71t70.5 -30q43 0 72 29t29 72v1421q0 43 -29 71.5t-72 28.5q-41 0 -70.5 -29.5t-29.5 -70.5v-1421zM346 799q0 -70 29 -119l364 -629q29 -51 86 -51q43 0 73 28.5t30 71.5q0 27 -15 52l-362 628q-4 4 -4 19q0 14 4 20l373 647q14 25 14 50 q0 43 -28.5 72.5t-71.5 29.5q-59 0 -88 -51l-375 -647q-29 -49 -29 -121z" />
<glyph unicode="l" horiz-adv-x="1492" d="M0 819q0 -68 31 -121l334 -577q70 -121 208 -121h748q43 0 71.5 28.5t28.5 71.5t-28.5 73t-71.5 30h-748q-25 0 -34 18l-334 578q-2 6 -2 20t2 21l375 647q14 25 14 51q0 43 -29.5 71.5t-72.5 28.5q-59 0 -89 -51l-372 -647q-31 -53 -31 -121z" />
<glyph unicode="m" horiz-adv-x="1945" d="M0 838q0 -70 31 -123l372 -647q29 -51 91 -52q43 0 72.5 30t29.5 73q0 31 -12 51l-375 647q-2 6 -2 21q0 12 2 18l317 551l248 -229q57 -53 133 -54q72 0 127 47l289 242l319 -557q4 -6 5 -18q0 -23 -189 -346l-196 -336q-14 -25 -15 -54q0 -43 30 -72.5t73 -29.5 q61 0 90 51l383 664q31 53 30 123q0 70 -30 123l-342 589q-51 88 -148 88q-63 0 -112 -41l-314 -264l-274 256q-52 49 -116 49q-11 0 -23 -2q-78 -10 -121 -86l-342 -589q-31 -53 -31 -123z" />
<glyph unicode="n" d="M0 819q0 -68 31 -121l372 -647q29 -51 89 -51q43 0 72.5 28.5t29.5 71.5q0 27 -14 52l-375 647q-2 6 -2 20t2 21l287 495l702 -1214q47 -80 127 -80q82 0 129 80l334 577q29 49 28 121q0 72 -28 121l-375 647q-29 51 -88 51q-41 0 -70.5 -29.5t-29.5 -70.5q0 -31 12 -51 l375 -647q4 -6 4 -21q0 -14 -4 -20l-287 -496l-700 1215q-45 80 -129 79q-80 0 -127 -79l-334 -578q-31 -53 -31 -121z" />
<glyph unicode="o" d="M0 819q0 -68 31 -121l334 -577q70 -121 208 -121h668q61 0 119.5 34t89.5 87l334 577q29 49 28 121q0 72 -28 121l-334 578q-31 53 -89 86.5t-120 33.5h-668q-139 0 -208 -120l-334 -578q-31 -53 -31 -121zM203 819q0 14 2 21l334 577q10 18 34 19h668q23 0 33 -19 l334 -577q4 -6 4 -21q0 -14 -4 -20l-334 -578q-10 -18 -33 -18h-668q-25 0 -34 18l-334 578q-2 6 -2 20z" />
<glyph unicode="p" horiz-adv-x="1896" d="M0 819q0 -68 31 -121l372 -647q29 -51 89 -51q43 0 72.5 28.5t29.5 71.5q0 27 -14 52l-330 571q90 -2 242 -2l1163 -2q63 0 107 39t44 100q0 43 -22 82l-334 578q-31 53 -89 86.5t-120 33.5h-668q-139 0 -208 -120l-334 -578q-31 -53 -31 -121zM254 924l285 493 q10 18 34 19h668q23 0 33 -19l287 -495z" />
<glyph unicode="q" horiz-adv-x="1986" d="M0 819l473 -819h946l473 819l-473 819h-946zM233 819l357 617h713l356 -617l-301 -522l-168 278q-29 49 -86 50q-43 0 -73 -29t-30 -72q0 -29 17 -51l162 -270h-590z" />
<glyph unicode="r" horiz-adv-x="1890" d="M0 819q0 -68 31 -121l372 -647q29 -51 89 -51q43 0 72.5 28.5t29.5 71.5q0 27 -14 52l-334 579q123 -2 340 -2h565l387 -670q29 -51 88 -51q43 0 71.5 29t28.5 72q0 31 -12 51l-330 569h265q63 0 107 39t44 100q0 43 -22 82l-328 568q-31 53 -89 86.5t-120 33.5h-668 q-139 0 -208 -120l-334 -578q-31 -53 -31 -121zM260 932l279 485q10 18 34 19h668q23 0 33 -19l280 -485h-1294z" />
<glyph unicode="s" horiz-adv-x="1888" d="M0 858q0 -61 44 -100t108 -39h1402l-286 -498q-10 -18 -35 -18h-748q-43 0 -72.5 -30t-29.5 -73t29.5 -71.5t72.5 -28.5h748q139 0 209 121l334 577q23 39 22 82q0 61 -44 100.5t-105 39.5h-1403l286 497q10 18 33 19h750q43 0 71.5 29.5t28.5 72.5q0 41 -29.5 70.5 t-70.5 29.5h-750q-61 0 -119.5 -33.5t-89.5 -86.5l-333 -578q-23 -39 -23 -82z" />
<glyph unicode="t" horiz-adv-x="1966" d="M0 813q0 -43 29.5 -71.5t72.5 -28.5q59 0 88 49l377 653q10 18 33 21h223v-1334q0 -43 29 -72.5t72 -29.5t72.5 29.5t29.5 72.5v1334h246q23 0 35 -21l376 -653q29 -49 89 -49q41 0 71.5 29.5t30.5 70.5q0 27 -14 51l-377 654q-31 53 -90.5 86.5t-120.5 33.5h-672 q-139 0 -209 -120l-377 -654q-14 -24 -14 -51z" />
<glyph unicode="u" d="M0 819q0 -68 31 -121l334 -577q70 -121 208 -121h668q61 0 119.5 34t89.5 87l334 577q29 49 28 121q0 72 -28 121l-375 647q-29 51 -88 51q-41 0 -70.5 -29.5t-29.5 -70.5q0 -31 12 -51l375 -647q4 -6 4 -21q0 -14 -4 -20l-334 -578q-10 -18 -33 -18h-668q-25 0 -34 18 l-334 578q-2 6 -2 20t2 21l375 647q14 25 14 51q0 43 -29.5 71.5t-72.5 28.5q-59 0 -89 -51l-372 -647q-31 -53 -31 -121z" />
<glyph unicode="v" horiz-adv-x="1974" d="M0 815l926 -815l954 813l-448 776q-29 49 -86 49q-41 0 -70 -28.5t-29 -69.5q0 -31 13 -51l366 -633l-698 -594l-676 594l366 633q14 25 15 51q0 41 -30 69.5t-71 28.5q-57 0 -86 -49z" />
<glyph unicode="w" horiz-adv-x="1945" d="M0 801q0 70 31 123l372 647q29 51 91 51q43 0 72.5 -29.5t29.5 -72.5q0 -31 -12 -52l-375 -647q-2 -6 -2 -20q0 -12 2 -21l317 -549l248 230q57 53 133 53q72 0 127 -47l289 -242l319 555q4 6 5 21q0 14 -5 20l-380 662q-14 25 -15 53q0 43 30 72.5t73 29.5q61 0 90 -51 l383 -663q31 -53 30 -123q0 -70 -30 -123l-342 -590q-51 -88 -148 -88q-63 0 -112 41l-314 264l-274 -256q-52 -49 -116 -49q-11 0 -23 2q-78 10 -121 86l-342 590q-31 53 -31 123z" />
<glyph unicode="x" horiz-adv-x="1396" d="M0 100q0 -41 29.5 -70.5t70.5 -29.5q59 0 88 51l371 643q31 53 31 121t-31 121l-371 645q-29 49 -88 49q-41 0 -70.5 -29.5t-29.5 -70.5q0 -27 14 -51l371 -643q4 -6 4 -21q0 -23 -182 -338l-193 -325q-14 -25 -14 -52zM739 823q0 -68 31 -121l373 -645q29 -49 86 -49 q43 0 72.5 29t29.5 72q0 27 -14 51l-373 643q-2 6 -2 20q0 25 182 338l193 326q14 25 14 51q0 43 -29.5 71.5t-72.5 28.5q-57 0 -86 -51l-373 -643q-31 -53 -31 -121z" />
<glyph unicode="y" horiz-adv-x="1951" d="M0 1538q0 -27 14 -51l373 -647q31 -53 89.5 -87t119.5 -34h235v-619q0 -41 30 -70.5t71 -29.5q43 0 72.5 28.5t29.5 71.5v619h230q61 0 119.5 33.5t89.5 87.5l372 647q14 25 15 51q0 41 -30 70.5t-71 29.5q-59 0 -88 -51l-375 -647q-10 -18 -32 -18h-668q-23 0 -33 18 l-375 647q-29 51 -88 51q-41 0 -70.5 -29.5t-29.5 -70.5z" />
<glyph unicode="z" horiz-adv-x="1888" d="M0 780q0 61 44 100.5t108 39.5h1402l-286 497q-10 18 -35 19h-748q-43 0 -72.5 29.5t-29.5 72.5t29.5 71.5t72.5 28.5h748q139 0 209 -120l334 -578q23 -39 22 -82q0 -61 -44 -100t-105 -39h-1403l286 -498q10 -18 33 -18h750q43 0 71.5 -30t28.5 -73q0 -41 -29.5 -70.5 t-70.5 -29.5h-750q-61 0 -119.5 34t-89.5 87l-333 577q-23 39 -23 82z" />
<glyph unicode="&#xaa;" d="M0 819q0 -68 31 -121l372 -647q29 -51 89 -51q43 0 72.5 28.5t29.5 71.5q0 27 -14 52l-330 569h1313l-330 -569q-12 -20 -12 -52q0 -41 29.5 -70.5t70.5 -29.5q59 0 88 51l375 647q29 49 28 121q0 72 -28 121l-334 578q-31 53 -89 86.5t-120 33.5h-668q-139 0 -208 -120 l-334 -578q-31 -53 -31 -121zM254 924l285 493q10 18 34 19h668q23 0 33 -19l285 -493h-1305z" />
<glyph unicode="&#xb2;" horiz-adv-x="1517" d="M0 819q0 -41 29.5 -70.5t70.5 -29.5q59 0 88 49l375 649q10 18 33 19h573l-700 -1215q-25 -43 -25 -82q0 -61 44 -100t108 -39h750q41 0 70.5 29.5t29.5 70.5q0 43 -28.5 73t-71.5 30h-656l703 1214q23 39 22 82q0 61 -44 100t-107 39h-668q-61 0 -119.5 -33.5 t-89.5 -86.5l-373 -648q-14 -24 -14 -51z" />
<glyph unicode="&#xb3;" horiz-adv-x="1492" d="M0 100q0 43 28.5 73t71.5 30h750q23 0 33 18l286 496h-774q-43 0 -72.5 28.5t-29.5 71.5t29.5 73t72.5 30h776l-288 497q-10 18 -33 19h-750q-43 0 -71.5 29.5t-28.5 72.5q0 41 29.5 70.5t70.5 29.5h750q61 0 119.5 -33.5t89.5 -86.5l334 -578q29 -49 28 -121 q0 -72 -28 -121l-334 -577q-31 -53 -89.5 -87t-119.5 -34h-750q-41 0 -70.5 29.5t-29.5 70.5z" />
<glyph unicode="&#xb9;" horiz-adv-x="647" d="M0 819q0 -41 29.5 -70.5t70.5 -29.5q57 0 88 51l226 387l-4 -1057q0 -43 28.5 -71.5t71.5 -28.5q41 0 70.5 29.5t29.5 70.5l6 1436q0 43 -28.5 72.5t-71.5 29.5q-59 0 -88 -51l-414 -717q-14 -24 -14 -51z" />
<glyph unicode="&#xba;" d="M0 819q0 -68 31 -121l334 -577q70 -121 208 -121h668q61 0 119.5 34t89.5 87l334 577q29 49 28 121q0 72 -28 121l-334 578q-31 53 -89 86.5t-120 33.5h-668q-139 0 -208 -120l-334 -578q-31 -53 -31 -121zM203 819q0 14 2 21l334 577q10 18 34 19h668q23 0 33 -19 l334 -577q4 -6 4 -21q0 -14 -4 -20l-334 -578q-10 -18 -33 -18h-668q-25 0 -34 18l-334 578q-2 6 -2 20z" />
<glyph unicode="&#xc2;" d="M887 1761v2025h41v-2025h-41zM0 819q0 -68 31 -121l372 -647q29 -51 89 -51q43 0 72.5 28.5t29.5 71.5q0 27 -14 52l-330 569h1313l-330 -569q-12 -20 -12 -52q0 -41 29.5 -70.5t70.5 -29.5q59 0 88 51l375 647q29 49 28 121q0 72 -28 121l-334 578q-31 53 -89 86.5 t-120 33.5h-668q-139 0 -208 -120l-334 -578q-31 -53 -31 -121zM254 924l285 493q10 18 34 19h668q23 0 33 -19l285 -493h-1305z" />
<glyph unicode="&#xca;" horiz-adv-x="1492" d="M928 1761v2025h41v-2025h-41zM0 819q0 -68 31 -121l334 -577q70 -121 208 -121h748q43 0 71.5 28.5t28.5 71.5t-28.5 73t-71.5 30h-748q-25 0 -34 18l-285 496h774q41 0 70.5 29.5t29.5 70.5q0 43 -28.5 73t-71.5 30h-776l287 497q10 18 34 19h748q43 0 71.5 29.5 t28.5 72.5t-28.5 71.5t-71.5 28.5h-748q-139 0 -208 -120l-334 -578q-31 -53 -31 -121z" />
<glyph unicode="&#xce;" horiz-adv-x="1083" d="M493 1761v2025h41v-2025h-41zM0 100q0 -41 29.5 -70.5t70.5 -29.5h830q43 0 72.5 28.5t29.5 71.5t-29.5 73t-72.5 30h-326v1233h326q43 0 72.5 29.5t29.5 72.5t-29.5 71.5t-72.5 28.5h-830q-41 0 -70.5 -29.5t-29.5 -70.5q0 -43 28.5 -72.5t71.5 -29.5h303v-1233h-303 q-43 0 -71.5 -30t-28.5 -73z" />
<glyph unicode="&#xd4;" d="M887 1761v2025h41v-2025h-41zM0 819q0 -68 31 -121l334 -577q70 -121 208 -121h668q61 0 119.5 34t89.5 87l334 577q29 49 28 121q0 72 -28 121l-334 578q-31 53 -89 86.5t-120 33.5h-668q-139 0 -208 -120l-334 -578q-31 -53 -31 -121zM203 819q0 14 2 21l334 577 q10 18 34 19h668q23 0 33 -19l334 -577q4 -6 4 -21q0 -14 -4 -20l-334 -578q-10 -18 -33 -18h-668q-25 0 -34 18l-334 578q-2 6 -2 20z" />
<glyph unicode="&#xdb;" d="M887 1761v2025h41v-2025h-41zM0 819q0 -68 31 -121l334 -577q70 -121 208 -121h668q61 0 119.5 34t89.5 87l334 577q29 49 28 121q0 72 -28 121l-375 647q-29 51 -88 51q-41 0 -70.5 -29.5t-29.5 -70.5q0 -31 12 -51l375 -647q4 -6 4 -21q0 -14 -4 -20l-334 -578 q-10 -18 -33 -18h-668q-25 0 -34 18l-334 578q-2 6 -2 20t2 21l375 647q14 25 14 51q0 43 -29.5 71.5t-72.5 28.5q-59 0 -89 -51l-372 -647q-31 -53 -31 -121z" />
<glyph unicode="&#xe2;" d="M887 1761v2025h41v-2025h-41zM0 819q0 -68 31 -121l372 -647q29 -51 89 -51q43 0 72.5 28.5t29.5 71.5q0 27 -14 52l-330 569h1313l-330 -569q-12 -20 -12 -52q0 -41 29.5 -70.5t70.5 -29.5q59 0 88 51l375 647q29 49 28 121q0 72 -28 121l-334 578q-31 53 -89 86.5 t-120 33.5h-668q-139 0 -208 -120l-334 -578q-31 -53 -31 -121zM254 924l285 493q10 18 34 19h668q23 0 33 -19l285 -493h-1305z" />
<glyph unicode="&#xea;" horiz-adv-x="1492" d="M928 1761v2025h41v-2025h-41zM0 819q0 -68 31 -121l334 -577q70 -121 208 -121h748q43 0 71.5 28.5t28.5 71.5t-28.5 73t-71.5 30h-748q-25 0 -34 18l-285 496h774q41 0 70.5 29.5t29.5 70.5q0 43 -28.5 73t-71.5 30h-776l287 497q10 18 34 19h748q43 0 71.5 29.5 t28.5 72.5t-28.5 71.5t-71.5 28.5h-748q-139 0 -208 -120l-334 -578q-31 -53 -31 -121z" />
<glyph unicode="&#xee;" horiz-adv-x="1083" d="M493 1761v2025h41v-2025h-41zM0 100q0 -41 29.5 -70.5t70.5 -29.5h830q43 0 72.5 28.5t29.5 71.5t-29.5 73t-72.5 30h-326v1233h326q43 0 72.5 29.5t29.5 72.5t-29.5 71.5t-72.5 28.5h-830q-41 0 -70.5 -29.5t-29.5 -70.5q0 -43 28.5 -72.5t71.5 -29.5h303v-1233h-303 q-43 0 -71.5 -30t-28.5 -73z" />
<glyph unicode="&#xf4;" d="M887 1761v2025h41v-2025h-41zM0 819q0 -68 31 -121l334 -577q70 -121 208 -121h668q61 0 119.5 34t89.5 87l334 577q29 49 28 121q0 72 -28 121l-334 578q-31 53 -89 86.5t-120 33.5h-668q-139 0 -208 -120l-334 -578q-31 -53 -31 -121zM203 819q0 14 2 21l334 577 q10 18 34 19h668q23 0 33 -19l334 -577q4 -6 4 -21q0 -14 -4 -20l-334 -578q-10 -18 -33 -18h-668q-25 0 -34 18l-334 578q-2 6 -2 20z" />
<glyph unicode="&#xfb;" d="M887 1761v2025h41v-2025h-41zM0 819q0 -68 31 -121l334 -577q70 -121 208 -121h668q61 0 119.5 34t89.5 87l334 577q29 49 28 121q0 72 -28 121l-375 647q-29 51 -88 51q-41 0 -70.5 -29.5t-29.5 -70.5q0 -31 12 -51l375 -647q4 -6 4 -21q0 -14 -4 -20l-334 -578 q-10 -18 -33 -18h-668q-25 0 -34 18l-334 578q-2 6 -2 20t2 21l375 647q14 25 14 51q0 43 -29.5 71.5t-72.5 28.5q-59 0 -89 -51l-372 -647q-31 -53 -31 -121z" />
<glyph unicode="&#x152;" horiz-adv-x="3397" d="M1905 819q0 -68 31 -121l334 -577q70 -121 208 -121h748q43 0 71.5 28.5t28.5 71.5t-28.5 73t-71.5 30h-748q-25 0 -34 18l-285 496h774q41 0 70.5 29.5t29.5 70.5q0 43 -28.5 73t-71.5 30h-776l287 497q10 18 34 19h748q43 0 71.5 29.5t28.5 72.5t-28.5 71.5t-71.5 28.5 h-748q-139 0 -208 -120l-334 -578q-31 -53 -31 -121zM0 819q0 -68 31 -121l334 -577q70 -121 208 -121h668q61 0 119.5 34t89.5 87l334 577q29 49 28 121q0 72 -28 121l-334 578q-31 53 -89 86.5t-120 33.5h-668q-139 0 -208 -120l-334 -578q-31 -53 -31 -121zM203 819 q0 14 2 21l334 577q10 18 34 19h668q23 0 33 -19l334 -577q4 -6 4 -21q0 -14 -4 -20l-334 -578q-10 -18 -33 -18h-668q-25 0 -34 18l-334 578q-2 6 -2 20z" />
<glyph unicode="&#x153;" horiz-adv-x="3397" d="M1905 819q0 -68 31 -121l334 -577q70 -121 208 -121h748q43 0 71.5 28.5t28.5 71.5t-28.5 73t-71.5 30h-748q-25 0 -34 18l-285 496h774q41 0 70.5 29.5t29.5 70.5q0 43 -28.5 73t-71.5 30h-776l287 497q10 18 34 19h748q43 0 71.5 29.5t28.5 72.5t-28.5 71.5t-71.5 28.5 h-748q-139 0 -208 -120l-334 -578q-31 -53 -31 -121zM0 819q0 -68 31 -121l334 -577q70 -121 208 -121h668q61 0 119.5 34t89.5 87l334 577q29 49 28 121q0 72 -28 121l-334 578q-31 53 -89 86.5t-120 33.5h-668q-139 0 -208 -120l-334 -578q-31 -53 -31 -121zM203 819 q0 14 2 21l334 577q10 18 34 19h668q23 0 33 -19l334 -577q4 -6 4 -21q0 -14 -4 -20l-334 -578q-10 -18 -33 -18h-668q-25 0 -34 18l-334 578q-2 6 -2 20z" />
<glyph unicode="&#x2c6;" horiz-adv-x="151" d="M51 -387v2025h41v-2025h-41z" />
<glyph unicode="&#x2013;" horiz-adv-x="1024" d="M205 512v205h614v-205h-614z" />
<glyph unicode="&#x2014;" horiz-adv-x="2048" d="M205 512v205h1638v-205h-1638z" />
<glyph unicode="&#x2122;" horiz-adv-x="3911" d="M1966 838q0 -70 31 -123l372 -647q29 -51 91 -52q43 0 72.5 30t29.5 73q0 31 -12 51l-375 647q-2 6 -2 21q0 12 2 18l317 551l248 -229q57 -53 133 -54q72 0 127 47l289 242l319 -557q4 -6 5 -18q0 -23 -189 -346l-196 -336q-14 -25 -15 -54q0 -43 30 -72.5t73 -29.5 q61 0 90 51l383 664q31 53 30 123q0 70 -30 123l-342 589q-51 88 -148 88q-63 0 -112 -41l-314 -264l-274 256q-52 49 -116 49q-11 0 -23 -2q-78 -10 -121 -86l-342 -589q-31 -53 -31 -123zM0 813q0 -43 29.5 -71.5t72.5 -28.5q59 0 88 49l377 653q10 18 33 21h223v-1334 q0 -43 29 -72.5t72 -29.5t72.5 29.5t29.5 72.5v1334h246q23 0 35 -21l376 -653q29 -49 89 -49q41 0 71.5 29.5t30.5 70.5q0 27 -14 51l-377 654q-31 53 -90.5 86.5t-120.5 33.5h-672q-139 0 -209 -120l-377 -654q-14 -24 -14 -51z" />
<glyph unicode="&#xe000;" horiz-adv-x="1640" d="M0 1640h1640v-1640h-1640v1640z" />
<glyph unicode="&#xfb01;" horiz-adv-x="2576" d="M1493 100q0 -41 29.5 -70.5t70.5 -29.5h830q43 0 72.5 28.5t29.5 71.5t-29.5 73t-72.5 30h-326v1233h326q43 0 72.5 29.5t29.5 72.5t-29.5 71.5t-72.5 28.5h-830q-41 0 -70.5 -29.5t-29.5 -70.5q0 -43 28.5 -72.5t71.5 -29.5h303v-1233h-303q-43 0 -71.5 -30t-28.5 -73z M0 819q0 -68 31 -121l372 -647q29 -51 89 -51q43 0 72.5 28.5t29.5 71.5q0 27 -14 52l-326 565h774q41 0 70.5 29.5t29.5 70.5q0 43 -28.5 73t-71.5 30h-776l287 497q10 18 34 19h748q43 0 71.5 29.5t28.5 72.5t-28.5 71.5t-71.5 28.5h-748q-139 0 -208 -120l-334 -578 q-31 -53 -31 -121z" />
<glyph unicode="&#xfb02;" horiz-adv-x="2985" d="M1493 819q0 -68 31 -121l334 -577q70 -121 208 -121h748q43 0 71.5 28.5t28.5 71.5t-28.5 73t-71.5 30h-748q-25 0 -34 18l-334 578q-2 6 -2 20t2 21l375 647q14 25 14 51q0 43 -29.5 71.5t-72.5 28.5q-59 0 -89 -51l-372 -647q-31 -53 -31 -121zM0 819q0 -68 31 -121 l372 -647q29 -51 89 -51q43 0 72.5 28.5t29.5 71.5q0 27 -14 52l-326 565h774q41 0 70.5 29.5t29.5 70.5q0 43 -28.5 73t-71.5 30h-776l287 497q10 18 34 19h748q43 0 71.5 29.5t28.5 72.5t-28.5 71.5t-71.5 28.5h-748q-139 0 -208 -120l-334 -578q-31 -53 -31 -121z" />
<glyph unicode="&#xfb03;" horiz-adv-x="4069" d="M2986 100q0 -41 29.5 -70.5t70.5 -29.5h830q43 0 72.5 28.5t29.5 71.5t-29.5 73t-72.5 30h-326v1233h326q43 0 72.5 29.5t29.5 72.5t-29.5 71.5t-72.5 28.5h-830q-41 0 -70.5 -29.5t-29.5 -70.5q0 -43 28.5 -72.5t71.5 -29.5h303v-1233h-303q-43 0 -71.5 -30t-28.5 -73z M1493 819q0 -68 31 -121l372 -647q29 -51 89 -51q43 0 72.5 28.5t29.5 71.5q0 27 -14 52l-326 565h774q41 0 70.5 29.5t29.5 70.5q0 43 -28.5 73t-71.5 30h-776l287 497q10 18 34 19h748q43 0 71.5 29.5t28.5 72.5t-28.5 71.5t-71.5 28.5h-748q-139 0 -208 -120l-334 -578 q-31 -53 -31 -121zM0 819q0 -68 31 -121l372 -647q29 -51 89 -51q43 0 72.5 28.5t29.5 71.5q0 27 -14 52l-326 565h774q41 0 70.5 29.5t29.5 70.5q0 43 -28.5 73t-71.5 30h-776l287 497q10 18 34 19h748q43 0 71.5 29.5t28.5 72.5t-28.5 71.5t-71.5 28.5h-748 q-139 0 -208 -120l-334 -578q-31 -53 -31 -121z" />
<glyph unicode="&#xfb04;" horiz-adv-x="4478" d="M2986 819q0 -68 31 -121l334 -577q70 -121 208 -121h748q43 0 71.5 28.5t28.5 71.5t-28.5 73t-71.5 30h-748q-25 0 -34 18l-334 578q-2 6 -2 20t2 21l375 647q14 25 14 51q0 43 -29.5 71.5t-72.5 28.5q-59 0 -89 -51l-372 -647q-31 -53 -31 -121zM1493 819q0 -68 31 -121 l372 -647q29 -51 89 -51q43 0 72.5 28.5t29.5 71.5q0 27 -14 52l-326 565h774q41 0 70.5 29.5t29.5 70.5q0 43 -28.5 73t-71.5 30h-776l287 497q10 18 34 19h748q43 0 71.5 29.5t28.5 72.5t-28.5 71.5t-71.5 28.5h-748q-139 0 -208 -120l-334 -578q-31 -53 -31 -121zM0 819 q0 -68 31 -121l372 -647q29 -51 89 -51q43 0 72.5 28.5t29.5 71.5q0 27 -14 52l-326 565h774q41 0 70.5 29.5t29.5 70.5q0 43 -28.5 73t-71.5 30h-776l287 497q10 18 34 19h748q43 0 71.5 29.5t28.5 72.5t-28.5 71.5t-71.5 28.5h-748q-139 0 -208 -120l-334 -578 q-31 -53 -31 -121z" />
</font>
</defs>
</svg>
